<?xml version="1.0" standalone="no"?>
<!DOCTYPE svg PUBLIC "-//W3C//DTD SVG 1.1//EN" "http://www.w3.org/Graphics/SVG/1.1/DTD/svg11.dtd">
<svg xmlns="http://www.w3.org/2000/svg"><defs><font id="flaticon" horiz-adv-x="512"><font-face units-per-em="512" ascent="448" descent="-64" x-height="240" cap-height="480"/><missing-glyph horiz-adv-x="512"/><glyph unicode="&#xE000;" glyph-name="arrow103" horiz-adv-x="512" d="M273.056 413.856c-131.968 0 -238.944 -106.976 -238.944 -238.944S141.12 -64 273.056 -64S512 42.976 512 174.944S405.024 413.856 273.056 413.856zM273.056 -32 c-114.112 0 -206.944 92.8 -206.944 206.944s92.832 206.944 206.944 206.944S480 289.024 480 174.944C480 60.864 387.2 -32 273.056 -32zM283.36 251.2C280.224 254.336 276.128 255.872 272 255.872S263.776 254.336 260.64 251.2L156.864 147.424c-6.24 -6.24 -6.24 -16.384 0 -22.624 c6.24 -6.24 16.384 -6.24 22.624 0L272 217.312l92.512 -92.512c6.24 -6.24 16.384 -6.24 22.624 0s6.24 16.384 0 22.624L283.36 251.2z"/><glyph unicode="&#xE001;" glyph-name="arrow483" horiz-adv-x="512" d="M256 83.06688c-6.85056 0 -13.70112 2.61632 -18.92352 7.8336l-164.34688 164.352c-10.45504 10.45504 -10.45504 27.40224 0 37.85216 c10.44992 10.44992 27.39712 10.44992 37.85216 0L256 147.68128l145.41824 145.41824c10.45504 10.44992 27.40224 10.44992 37.85216 0c10.45504 -10.44992 10.45504 -27.39712 0 -37.85216 l-164.34688 -164.352C269.70112 85.67808 262.85056 83.06688 256 83.06688z"/><glyph unicode="&#xE002;" glyph-name="black11" horiz-adv-x="512" d="M512 256L320 256L320 448L192 448L192 256L0 256L0 128L192 128L192 -64L320 -64L320 128L512 128Z"/><glyph unicode="&#xE003;" glyph-name="check26" horiz-adv-x="512" d="M416.166 377.827L476.2885 327.43c3.5965 -3.042 4.2625 -8.7025 1.1545 -12.411l-258.3365 -307.845 c-2.042 -2.442 -4.8625 -3.4635 -7.6155 -3.108c-1.9305 0.089 -3.84 0.7995 -5.438 2.1315l-170.174 142.8 c-3.797 3.1525 -4.442 8.881 -1.311 12.6105l50.2635 59.9c3.042 3.618 8.814 4.129 12.6775 0.888L201.19 135.4085l202.544 241.42 C407.064 380.757 412.4365 380.979 416.166 377.827z"/><glyph unicode="&#xE004;" glyph-name="checkbox2" horiz-adv-x="512" d="M0 448v-512h512V448H0zM480 -32H32V416h448V-32zM384 336L224 176l-96 96l-64 -64l160 -160l224 224L384 336z"/><glyph unicode="&#xE005;" glyph-name="checkbox3" horiz-adv-x="512" d="M0 448v-512h512V448H0zM480 -32H32V416h448V-32z"/><glyph unicode="&#xE006;" glyph-name="clock4" horiz-adv-x="512" d="M255.98302837444 448C114.60938743039 448 0 333.37364094405 0 192c0 -141.39061256961 114.60938743039 -256 255.98302837444 -256 c141.39061256961 0 255.98302837444 114.60938743039 255.98302837444 256C511.98302837444 333.37364094405 397.39061256961 448 255.98302837444 448zM425.15619199151 61.539114293291l-23.183240519756 19.09307875895 c-0.95041103155662 0.79766640148502 -2.359055953328 0.64492177141342 -3.1397507292495 -0.33943251127022c-0.78069477592151 -0.91646778042959 -0.64492177141342 -2.325112702201 0.3054892601432 -3.1058074781225l23.335985149828 -19.194908512331c-9.3174224343675 -11.574648634315 -19.77194378149 -22.164942985945 -31.244762662424 -31.51630867144 l-18.855476001061 24.116679925749c-0.74675152479448 0.95041103155662 -2.1553964465659 1.1031556616282 -3.122779103686 0.37337576239724c-0.96738265712013 -0.763723150358 -1.1370989127552 -2.1723680721294 -0.37337576239724 -3.1397507292495l18.821532749934 -24.099708300186 c-10.861840360647 -8.502784407319 -22.57226199947 -15.936356404137 -34.978520286396 -22.266772739326l-14.137364094405 26.73031026253c-0.56006364359586 1.1031556616282 -1.9008220631132 1.5104746751525 -2.9870060991779 0.95041103155662c-1.0861840360647 -0.54309201803235 -1.493503049589 -1.9177936886767 -0.91646778042959 -3.0039777247414 l14.086449217714 -26.679395385839c-13.560328825245 -6.5340758419517 -27.850437549722 -11.79527976664 -42.802439671175 -15.376292760541l-5.7194378149032 32.008485812782c-0.22063113232564 1.2219570405728 -1.3747016706444 1.9856801909308 -2.5627154600902 1.8329355608592 c-1.2219570405728 -0.27154600901618 -2.0196234420578 -1.3916732962079 -1.7989923097322 -2.5966587112172l5.7364094404667 -32.076372315036c-11.303102625298 -2.4778573322726 -22.843808008486 -4.1919915141872 -34.740917528507 -4.7859984089101v38.169185892336c0 5.9909838239194 -4.8538849111641 10.878811986211 -10.844868735084 10.878811986211 c-6.0079554494829 0 -10.878811986211 -4.8878281622912 -10.878811986211 -10.878811986211v-38.169185892336c-9.9114293290904 0.49217714134182 -19.585255900292 1.8499071864227 -29.106337841421 3.6658711217184l4.8029700344736 26.900026518165c0.22063113232564 1.2049854150093 -0.59400689472289 2.3760275788915 -1.7989923097322 2.5457438345267 c-1.1880137894458 0.20365950676213 -2.359055953328 -0.56006364359586 -2.5796870856537 -1.7650490586051l-4.7859984089101 -26.815168390347c-14.612569610183 3.088835852559 -28.699018827897 7.5184301246354 -42.021744895253 13.39061256961l12.3723150358 23.471758154336 c0.57703526915937 1.0861840360647 0.1527446300716 2.4439140811456 -0.93343940599311 3.020949350305c-1.0692124105012 0.52612039246884 -2.4269424555821 0.11880137894458 -3.0039777247414 -0.96738265712013l-12.474144789181 -23.641474409971c-12.491116414744 5.8042959427208 -24.235481304694 12.864492177141 -35.267037920976 20.858127817555 l17.480774330416 22.368602492708c0.74675152479448 0.98435428268364 0.57703526915937 2.3760275788915 -0.37337576239724 3.1397507292495c-0.98435428268364 0.763723150358 -2.3760275788915 0.56006364359586 -3.1397507292495 -0.37337576239724l-17.49774595598 -22.419517369398 c-11.727393264386 8.9101034208433 -22.57226199947 18.991249005569 -32.229116945107 30.124635375232l22.979581012994 18.889419252188c0.93343940599311 0.763723150358 1.0861840360647 2.1723680721294 0.3054892601432 3.156722354813c-0.78069477592151 0.91646778042959 -2.1893396976929 1.0692124105012 -3.1397507292495 0.32246088570671 l-23.115354017502 -19.076107133386c-9.3683373110581 11.269159374171 -17.463802704853 23.624502784407 -24.388225934765 36.658711217184l27.0697427738 14.222222222222c1.0861840360647 0.56006364359586 1.5104746751525 1.9177936886767 0.93343940599311 2.9870060991779 c-0.57703526915937 1.1201272871917 -1.9008220631132 1.493503049589 -2.9870060991779 0.96738265712013l-27.01882789711 -14.188278971095c-7.1789976133652 14.256165473349 -13.017236807213 29.326968973747 -16.886767435693 45.178467250066l31.329620790241 5.8552108194113 c1.2049854150093 0.22063113232564 1.9856801909308 1.4086449217714 1.7650490586051 2.5796870856537c-0.23760275788915 1.2219570405728 -1.3747016706444 1.9856801909308 -2.5966587112172 1.7650490586051l-31.363564041368 -5.8552108194113c-2.5627154600902 11.574648634315 -4.3617077698223 23.437814903209 -4.9726862901087 35.657385308937 h36.455051710422c6.0079554494829 0 10.861840360647 4.8538849111641 10.861840360647 10.878811986211c0 6.0079554494829 -4.8708565367277 10.878811986211 -10.861840360647 10.878811986211H42.479978785468c0.6109785202864 11.727393264386 2.3081410766375 23.166268894193 4.7181119066561 34.316626889419 c0.13577300450809 -0.016971625563511 0.20365950676213 -0.18668788119862 0.35640413683373 -0.18668788119862l34.927605409706 -6.5680190930788c0.13577300450809 -0.033943251127022 0.28851763457969 -0.033943251127022 0.40731901352426 -0.033943251127022c1.0522407849377 0 1.9687085653673 0.763723150358 2.1893396976929 1.8159639352957 c0.22063113232564 1.2049854150093 -0.57703526915937 2.3760275788915 -1.7650490586051 2.5966587112172L48.369132856006 241.35348713869c-0.11880137894458 0.033943251127022 -0.25457438345267 -0.067886502254044 -0.37337576239724 -0.067886502254044C51.848316096526 257.6292760541 57.703526915937 273.19225669584 65.069212410501 287.85574118271 l30.786528772209 -16.140015910899c0.32246088570671 -0.20365950676213 0.67886502254044 -0.3054892601432 1.0182975338107 -0.3054892601432c0.79766640148502 0 1.5783611774065 0.44126226465129 1.9687085653673 1.1710421638823c0.59400689472289 1.1201272871917 0.16971625563511 2.4439140811456 -0.93343940599311 3.0039777247414L67.088835852559 291.82710156457 C74.14903208698 305.13285600636 82.380270485282 317.70883054893 91.98621055423 329.18164942986l26.373906125696 -21.740652346858C118.80137894458 307.1185361973 119.27658446036 306.94881994166 119.78573322726 306.94881994166c0.64492177141342 0 1.2728719172633 0.27154600901618 1.7141341819146 0.79766640148502 c0.763723150358 0.96738265712013 0.64492177141342 2.3760275788915 -0.3054892601432 3.122779103686L94.990188278971 332.44020153805C104.8846459825 343.76027578892 115.96711747547 354.01113762928 128.01697162556 363.0230708035L147.99257491382 337.49774595598 c0.42429063908778 -0.57703526915937 1.0861840360647 -0.86555290373906 1.7480774330416 -0.86555290373906c0.47520551577831 0 0.95041103155662 0.16971625563511 1.3577300450809 0.47520551577831C152.0487934235 337.88809334394 152.23548130469 339.26279501458 151.4887297799 340.21320604614L131.56404136834 365.70458764254 c11.252187748608 8.1124370193583 23.268098647574 15.206576504906 36.01378944577 20.9769291965l14.171307345532 -26.832140015911c0.40731901352426 -0.79766640148502 1.1710421638823 -1.2049854150093 1.9687085653673 -1.2049854150093c0.35640413683373 0 0.71280827366746 0.10182975338107 1.0522407849377 0.28851763457969 c1.0692124105012 0.54309201803235 1.493503049589 1.8838504375497 0.91646778042959 3.0039777247414l-13.984619464333 26.458764253514c13.67913020419 5.8891540705383 28.105011933174 10.267833465924 43.124900556881 13.220896313975l5.2951471758154 -29.649429859454 c0.18668788119862 -1.0692124105012 1.1201272871917 -1.8329355608592 2.1723680721294 -1.8329355608592c0.13577300450809 0 0.27154600901618 0 0.40731901352426 0.033943251127022c1.2219570405728 0.23760275788915 2.0026518164943 1.4086449217714 1.7820206841687 2.5627154600902l-5.2951471758154 29.717316361708 c8.536727658446 1.4765314240255 17.192256695837 2.6306019623442 26.051445239989 3.088835852559c0 -0.18668788119862 -0.10182975338107 -0.32246088570671 -0.10182975338107 -0.4582338902148v-39.83240519756c0 -6.0079554494829 4.8878281622912 -10.878811986211 10.878811986211 -10.878811986211 c5.9909838239194 0 10.844868735084 4.8538849111641 10.844868735084 10.878811986211V405.06178732432c0 0.1527446300716 -0.067886502254044 0.28851763457969 -0.067886502254044 0.4582338902148c12.015910898966 -0.59400689472289 23.709360912225 -2.359055953328 35.114293290904 -4.8538849111641l-6.0418987006099 -33.824449748077 c-0.22063113232564 -1.2219570405728 0.57703526915937 -2.3760275788915 1.7989923097322 -2.5966587112172c0.13577300450809 -0.033943251127022 0.25457438345267 -0.033943251127022 0.37337576239724 -0.033943251127022c1.0522407849377 0 2.0026518164943 0.78069477592151 2.1893396976929 1.8159639352957l6.0418987006099 33.807478122514 c15.155661628215 -3.6488994961549 29.564571731636 -9.0458764253514 43.243701935826 -15.698753646248l-14.850172368072 -28.138955184301c-0.57703526915937 -1.0861840360647 -0.16971625563511 -2.4608857067091 0.91646778042959 -3.020949350305c0.33943251127022 -0.16971625563511 0.69583664810395 -0.25457438345267 1.0352691593742 -0.25457438345267 c0.79766640148502 0 1.561389551843 0.42429063908778 1.9517369398038 1.2049854150093l14.884115619199 28.155926809865c12.474144789181 -6.3983028374436 24.21850967913 -13.916732962079 35.097321665341 -22.57226199947l-19.7210289048 -25.219835587377 c-0.763723150358 -0.96738265712013 -0.59400689472289 -2.3420843277645 0.37337576239724 -3.1058074781225C369.64200477327 330.89578361177 370.11721028905 330.72606735614 370.59241580483 330.72606735614c0.66189339697693 0 1.3068151683903 0.32246088570671 1.7650490586051 0.86555290373906l19.754972155927 25.270750464068 c11.50676213206 -9.5041103155662 21.927340228056 -20.264120922832 31.193847785733 -31.991514187218l-24.184566428003 -19.907716785998c-0.93343940599311 -0.763723150358 -1.0692124105012 -2.1723680721294 -0.3054892601432 -3.122779103686c0.44126226465129 -0.56006364359586 1.0861840360647 -0.81463802704853 1.7141341819146 -0.81463802704853 c0.50914876690533 0 1.0013259082471 0.1527446300716 1.4256165473349 0.50914876690533l24.048793423495 19.805887032617c8.8931317952798 -11.710421638823 16.649164677804 -24.303367806948 23.013524264121 -37.660037125431l-26.628480509149 -14.001591089897 c-1.0692124105012 -0.52612039246884 -1.5104746751525 -1.9177936886767 -0.93343940599311 -2.9870060991779c0.39034738796075 -0.763723150358 1.1710421638823 -1.2049854150093 1.9687085653673 -1.2049854150093c0.35640413683373 0 0.69583664810395 0.10182975338107 1.0352691593742 0.25457438345267l26.543622381331 13.950676213206 c6.4831609652612 -14.35799522673 11.201272871917 -29.649429859454 14.35799522673 -45.483956510209l-28.342614691063 -5.3121188013789c-1.2049854150093 -0.22063113232564 -1.9856801909308 -1.4086449217714 -1.7650490586051 -2.5796870856537c0.22063113232564 -1.0522407849377 1.1370989127552 -1.8159639352957 2.1723680721294 -1.8159639352957 c0.16971625563511 0 0.28851763457969 0 0.44126226465129 0.067886502254044l28.359586316627 5.2951471758154c1.5783611774065 -8.8422169185892 2.8342614691063 -17.803235216123 3.2924953593211 -26.984884645982h-36.760540970565c-5.9909838239194 0 -10.861840360647 -4.8708565367277 -10.861840360647 -10.878811986211 c0 -6.0079554494829 4.8708565367277 -10.878811986211 10.861840360647 -10.878811986211h36.760540970565c-0.47520551577831 -9.7926279501458 -1.8668788119862 -19.347653142403 -3.6149562450278 -28.732962079024L437.86793953858 157.66640148502c-1.1880137894458 0.18668788119862 -2.3760275788915 -0.6109785202864 -2.6136303367807 -1.7989923097322 c-0.22063113232564 -1.1710421638823 0.57703526915937 -2.359055953328 1.7650490586051 -2.5796870856537l28.020153805357 -5.2442322991249c-3.3264386104482 -15.783611774065 -8.1803235216123 -30.922301776717 -14.731370989128 -45.19543887563l-25.847785733227 13.560328825245 c-1.0692124105012 0.57703526915937 -2.4439140811456 0.16971625563511 -3.0039777247414 -0.91646778042959c-0.57703526915937 -1.0861840360647 -0.13577300450809 -2.4439140811456 0.93343940599311 -2.9870060991779l25.898700609918 -13.594272076372 C441.87324317157 85.587907716786 434.08326703792 73.113762927605 425.15619199151 61.539114293291zM395.50676213206 202.87881198621h-121.83929992045c-3.7167859984089 6.0249270750464 -10.081145584726 10.267833465924 -17.684433837178 10.267833465924c-2.4778573322726 0 -4.7690267833466 -0.62795014584991 -6.975338106603 -1.4425881728984 L164.69265446831 296.01909307876c-4.2429063908778 4.2598780164413 -11.1164147441 4.2598780164413 -15.359321134977 0c-4.2598780164413 -4.2429063908778 -4.2598780164413 -11.1164147441 0 -15.342349509414l86.063113232564 -86.080084858128c-0.11880137894458 -0.91646778042959 -0.50914876690533 -1.6971625563511 -0.50914876690533 -2.5796870856537 c0 -6.5849907186423 3.088835852559 -12.3723150358 7.7899761336516 -16.275788915407l-59.89286661363 -106.31026252983l6.2964730840626 -3.5470697427738l59.89286661363 106.31026252983c2.2063113232564 -0.78069477592151 4.5483956510209 -1.2898435428268 7.0262529832936 -1.2898435428268 c7.6032882524529 0 13.950676213206 4.2259347653142 17.684433837178 10.250861840361h121.83929992045c5.9909838239194 0 10.861840360647 4.8538849111641 10.861840360647 10.878811986211C406.36860249271 198.00795544948 401.49774595598 202.87881198621 395.50676213206 202.87881198621z"/><glyph unicode="&#xE007;" glyph-name="eye38" horiz-adv-x="512" d="M256 343.208c-90.376 0 -176.056 -50.856 -229.192 -136.032L13.6 186l13.208 -21.168C79.944 79.648 165.624 28.792 256 28.792 s176.056 50.856 229.192 136.032L498.4 186l-13.208 21.176C432.056 292.352 346.376 343.208 256 343.208zM256 68.792 c-79.944 0 -150.88 46.072 -195.256 117.208C105.12 257.136 176.056 303.208 256 303.208s150.88 -46.072 195.256 -117.208 C406.88 114.864 335.944 68.792 256 68.792zM256 285.176c-54.776 0 -99.176 -44.4 -99.176 -99.176S201.224 86.824 256 86.824s99.176 44.4 99.176 99.176 S310.776 285.176 256 285.176zM217.68 252.888c12.448 0 22.536 -10.088 22.536 -22.536s-10.088 -22.536 -22.536 -22.536s-22.536 10.088 -22.536 22.536 S205.232 252.888 217.68 252.888zM256 111.48c-39.736 0 -71.944 23.192 -71.944 62.928c0 39.736 32.208 -2.24 71.944 -2.24s71.944 41.976 71.944 2.24 C327.944 134.68 295.736 111.48 256 111.48z"/><glyph unicode="&#xE008;" glyph-name="file1" horiz-adv-x="640" d="M639.8541903987 -39.503986981286l0.14580960130187 414.03677786819c-0.062489829129373 12.727095199349 -10.394141578519 23.058746948739 -23.100406834825 23.058746948739H324.88462164361 c-9.0193653376729 0.20829943043124 -16.059886086249 16.809764035801 -16.059886086249 23.142066720911V423.37900732303c0 13.497803091945 -10.99820992677 24.620992676973 -24.579332790887 24.620992676973h-155.39137510171C115.29373474369 448 104.31635475997 436.89764035801 104.31635475997 423.37900732303v-2.6454027664768 c0 -6.4364524003255 -7.1030105777055 -23.26704637917 -16.33067534581 -23.26704637917h0.27078925956062c-12.581285598047 -0.166639544345 -22.787957689178 -10.414971521562 -22.787957689178 -23.017087062653l0.10414971521562 -119.85549227014H15.893246541904c0 0 -21.996419853539 1.1873067534581 -14.226851098454 -24.975101708706 l52.408136696501 -269.12286411717c0 -13.539462978031 9.4359641985354 -24.496013018714 22.996257119609 -24.496013018714h551.45191212368C642.06216436127 -64 639.8541903987 -39.503986981286 639.8541903987 -39.503986981286zM611.54629780309 219.93295362083l-0.29161920260374 -270.26851098454 l-52.116517493897 289.70284784378c-4.4159479251424 15.914076484947 -22.392188771359 14.810089503662 -22.392188771359 14.810089503662H93.943043124491V346.12074857608h517.62408462164V219.93295362083z"/><glyph unicode="&#xE009;" glyph-name="great8" horiz-adv-x="288" d="M256 160c0 -48 -48 -96 -96 -96H128c-48 0 -96 48 -96 96V256H0v-96c0 -64 64 -128 128 -128v-64H32v-32h224v32H160v64c64 0 128 64 128 128V256H256V160zM159.84 96C195.296 96 224 124.8 224 159.744V384.256C224 419.456 195.392 448 159.84 448h-31.68C92.704 448 64 419.2 64 384.256v-224.512 C64 124.544 92.608 96 128.16 96H159.84z"/><glyph unicode="&#xE00A;" glyph-name="line6" horiz-adv-x="512" d="M128 128h256v-64h-256v64zm0 96h256v-64h-256v64zm0 96h256v-64h-256v64z"/><glyph unicode="&#xE00B;" glyph-name="menu20" horiz-adv-x="512" d="M0 256h352v-64H0V256zM0 352h352v-64H0V352zM0 160h352v-64H0V160zM0 64h352v-64H0V64zM384 160l64 -96l64 96H384zM512 192 l-64 96l-64 -96H512z"/><glyph unicode="&#xE00C;" glyph-name="minus14" horiz-adv-x="512" d="M32 256l448 0l0 -128l-448 0Z"/><glyph unicode="&#xE00D;" glyph-name="remove11" horiz-adv-x="757" d="M456.45150684932 192l83.999561643836 83.999561643836c5.3339178082192 5.3304109589041 7.9991232876712 11.807561643836 7.9991232876712 19.427945205479c0 7.6203835616438 -2.6687123287671 14.09402739726 -7.9991232876712 19.427945205479l-38.855890410959 38.859397260274 c-5.3339178082192 5.3339178082192 -11.807561643836 7.9991232876712 -19.424438356164 7.9991232876712c-7.6238904109589 0 -14.097534246575 -2.6652054794521 -19.431452054795 -7.9991232876712L378.7397260274 269.71528767123L294.74016438356 353.71484931507 c-5.3304109589041 5.3339178082192 -11.807561643836 7.9991232876712 -19.427945205479 7.9991232876712c-7.6168767123288 0 -14.09402739726 -2.6652054794521 -19.427945205479 -7.9991232876712L217.02487671233 314.85545205479c-5.3304109589041 -5.3304109589041 -7.9991232876712 -11.807561643836 -7.9991232876712 -19.427945205479 c0 -7.6203835616438 2.6652054794521 -14.09402739726 7.9991232876712 -19.427945205479L301.02443835616 192L217.02487671233 108.00043835616c-5.3304109589041 -5.3339178082192 -7.9991232876712 -11.807561643836 -7.9991232876712 -19.427945205479s2.6652054794521 -14.09402739726 7.9991232876712 -19.427945205479l38.859397260274 -38.855890410959 c5.3339178082192 -5.3339178082192 11.811068493151 -7.9991232876712 19.427945205479 -7.9991232876712c7.6203835616438 0 14.09402739726 2.6687123287671 19.427945205479 7.9991232876712L378.7397260274 114.28821917808l84.003068493151 -83.999561643836c5.3339178082192 -5.3339178082192 11.804054794521 -7.9991232876712 19.431452054795 -7.9991232876712 c7.6168767123288 0 14.09402739726 2.6687123287671 19.424438356164 7.9991232876712l38.852383561644 38.855890410959c5.3339178082192 5.3304109589041 7.9991232876712 11.807561643836 7.9991232876712 19.427945205479s-2.6652054794521 14.09402739726 -7.9991232876712 19.427945205479L456.45150684932 192z"/><glyph unicode="&#xE00E;" glyph-name="search4" horiz-adv-x="512" d="M497.056 18.816l-112.48 112.48c19.584 31.712 31.424 68.704 31.424 108.704 0 114.88 -93.12 208 -208 208s-208 -93.12 -208 -208 93.12 -208 208 -208c40 0 76.992 11.84 108.672 31.392l112.512 -112.48c18.752 -18.752 49.12 -18.752 67.872 0s18.752 49.152 0 67.904zm-289.056 77.184c-79.52 0 -144 64.48 -144 144s64.48 144 144 144 144 -64.48 144 -144 -64.48 -144 -144 -144z"/><glyph unicode="&#xE00F;" glyph-name="settings21" horiz-adv-x="512" d="M463.6145 224.6205l-44.3795 7.4035c-3.2255 13.187 -7.9285 25.7925 -14.0535 37.5495l28.4105 35.226 c6.0425 7.4445 5.768 18.156 -0.6025 25.341l-17.6505 19.865c-6.398 7.1775 -17.0075 8.6955 -25.101 3.5825l-37.953 -23.858 c-16.693 11.663 -35.602 20.2755 -56 25.273l-7.425 44.6175C287.302 409.068 279.1265 416 269.5295 416h-26.599 c-9.5775 0 -17.7805 -6.932 -19.3045 -16.3795l-7.465 -44.6315c-16.8645 -4.129 -32.6765 -10.794 -47.1065 -19.572l-36.094 25.759 c-7.779 5.5575 -18.4635 4.6885 -25.252 -2.0855l-18.7915 -18.805c-6.774 -6.7885 -7.643 -17.473 -2.071 -25.252l25.819 -36.163 c-8.6955 -14.321 -15.292 -30.043 -19.4205 -46.757l-44.8715 -7.493c-9.433 -1.558 -16.3785 -9.7345 -16.3785 -19.3315v-26.578 c0 -9.597 6.9455 -17.7735 16.3785 -19.3315l44.8715 -7.493c3.3905 -13.7535 8.3125 -26.892 14.8545 -39.0735l-28.281 -35.027 c-6.022 -7.4375 -5.769 -18.156 0.6015 -25.3345l17.637 -19.865c6.3985 -7.191 17.014 -8.6815 25.108 -3.5815l38.5 24.185 c16.2905 -11.1425 34.72 -19.332 54.4965 -24.185l7.465 -44.625C225.15 -25.0685 233.353 -32 242.9305 -32h26.599 c9.597 0 17.7725 6.9315 19.3305 16.3795l7.4375 44.625c16.654 4.0735 32.2655 10.6225 46.567 19.25l37.598 -26.8525 c7.7655 -5.578 18.4575 -4.703 25.239 2.0925l18.7985 18.7985c6.7665 6.768 7.683 17.4465 2.0635 25.239l-26.768 37.5295 c8.721 14.369 15.352 30.119 19.4545 46.908l44.379 7.4105c9.4605 1.558 16.378 9.7345 16.378 19.3315v26.578 C479.9935 214.886 473.076 223.0625 463.6145 224.6205zM256.7045 108c-46.382 0 -84 37.625 -84 84c0 46.382 37.618 84 84 84 c46.374 0 83.999 -37.618 83.999 -84C340.7035 145.625 303.0785 108 256.7045 108z"/><glyph unicode="&#xE010;" glyph-name="sort33" horiz-adv-x="512" d="M419.9424 76.8c0 -2.816 -2.304 -5.12 -5.12 -5.12c-0.04096 -0.01024 -0.12288 0 -0.21504 0h-317.44c-1.8944 0 -3.61472 1.04448 -4.48512 2.67264 c-0.90112 1.64864 -0.8192 3.65568 0.2048 5.23264l149.34016 230.4c0.9216 1.4336 2.46784 2.304 4.15744 2.34496c1.76128 0.01024 3.2768 -0.72704 4.28032 -2.0992 l167.41376 -229.44768C419.20512 79.8208 419.9424 78.39744 419.9424 76.8z"/><glyph unicode="&#xE011;" glyph-name="sort35" horiz-adv-x="512" d="M372.29568 174.21312c0.90112 -1.6384 0.8192 -3.6352 -0.2048 -5.2224L266.8032 6.5536c-0.9216 -1.42336 -2.4576 -2.29376 -4.15744 -2.34496c-0.04096 0 -0.08192 0 -0.14336 0 c-1.61792 0 -3.1744 0.77824 -4.13696 2.0992L139.86816 168.74496c-1.1264 1.54624 -1.30048 3.62496 -0.41984 5.33504c0.8704 1.72032 2.63168 2.78528 4.54656 2.78528h223.7952 C369.70496 176.88576 371.4048 175.872 372.29568 174.21312zM143.99488 207.09376h223.7952c0.08192 0 0.16384 0 0.2048 0c2.82624 0 5.12 2.304 5.12 5.12 c0 1.59744 -0.7168 3.0208 -1.87392 3.97312L253.41952 377.69216c-1.00352 1.36192 -2.72384 2.07872 -4.28032 2.0992c-1.6896 -0.0512 -3.23584 -0.9216 -4.15744 -2.34496 L139.70432 214.9888c-1.024 -1.55648 -1.0752 -3.584 -0.2048 -5.24288C140.41088 208.11776 142.1312 207.09376 143.99488 207.09376z"/><glyph unicode="&#xE012;" glyph-name="sort37" horiz-adv-x="512" d="M419.0208 304.42496l-149.34016 -230.4c-0.91136 -1.42336 -2.46784 -2.28352 -4.15744 -2.34496c-0.04096 0 -0.09216 0 -0.14336 0c-1.6384 0 -3.1744 0.77824 -4.13696 2.0992 l-168.09984 230.4c-1.13664 1.55648 -1.30048 3.62496 -0.43008 5.33504S95.35488 312.32 97.28 312.32h317.44c1.87392 0 3.60448 -1.03424 4.49536 -2.67264 S420.03456 305.99168 419.0208 304.42496z"/><glyph unicode="&#xE013;" glyph-name="square58" horiz-adv-x="512" d="M160 256h64v-64h-64V256zM256 256h64v-64h-64V256zM352 256h64v-64h-64V256zM64 64h64v-64H64V64zM160 64h64v-64h-64V64zM256 64h64v-64h-64V64zM160 160h64v-64h-64V160zM256 160h64v-64h-64V160zM352 160h64v-64h-64V160zM64 160h64v-64H64V160zM416 448 v-32h-64V448H128v-32H64V448H0v-512h480V448H416zM448 -32H32V320h416V-32z"/><glyph unicode="&#xE014;" glyph-name="star108" horiz-adv-x="512" d="M440.27904 234.3424c-1.25952 3.86048 -4.66944 6.61504 -8.704 7.04512l-118.26176 12.00128L265.3696 362.12736C263.7312 365.824 260.05504 368.2304 256 368.2304 c-4.05504 0 -7.7312 -2.39616 -9.3696 -6.11328l-47.96416 -108.73856L80.42496 241.38752c-4.03456 -0.4096 -7.45472 -3.18464 -8.704 -7.03488 c-1.25952 -3.86048 -0.11264 -8.09984 2.9184 -10.8032l88.59648 -79.23712L138.11712 28.16c-0.84992 -3.96288 0.70656 -8.05888 3.9936 -10.4448 c1.792 -1.30048 3.90144 -1.95584 6.02112 -1.95584c1.77152 0 3.55328 0.4608 5.15072 1.40288l102.72768 59.78112l102.7072 -59.78112 c3.50208 -2.03776 7.8848 -1.82272 11.17184 0.58368c3.2768 2.3552 4.84352 6.48192 3.9936 10.4448l-25.11872 116.16256l88.61696 79.22688 C440.39168 226.2528 441.53856 230.49216 440.27904 234.3424zM330.65984 155.61728c-2.74432 -2.4576 -3.96288 -6.1952 -3.18464 -9.79968l21.47328 -99.2768l-87.79776 51.0976 c-3.18464 1.86368 -7.1168 1.86368 -10.30144 0l-87.81824 -51.0976l21.47328 99.2768c0.77824 3.60448 -0.44032 7.34208 -3.18464 9.79968l-75.73504 67.71712l101.0688 10.26048 c3.66592 0.3584 6.84032 2.69312 8.33536 6.06208l41.00096 92.94848l40.99072 -92.94848c1.4848 -3.36896 4.66944 -5.70368 8.33536 -6.06208l101.0688 -10.26048L330.65984 155.61728z"/><glyph unicode="&#xE015;" glyph-name="star109" horiz-adv-x="512" d="M440.28928 234.35264c-1.25952 3.86048 -4.66944 6.61504 -8.71424 7.03488l-118.26176 11.99104l-47.95392 108.7488C263.7312 365.84448 260.05504 368.2304 256 368.2304 s-7.7312 -2.39616 -9.3696 -6.11328l-47.95392 -108.7488L80.42496 241.38752c-4.0448 -0.4096 -7.45472 -3.16416 -8.71424 -7.03488c-1.24928 -3.86048 -0.11264 -8.09984 2.9184 -10.8032 l88.58624 -79.2064l-25.11872 -116.1728c-0.86016 -3.96288 0.7168 -8.07936 4.00384 -10.45504s7.64928 -2.6112 11.17184 -0.5632l102.71744 59.78112l102.7072 -59.78112 c1.59744 -0.94208 3.3792 -1.40288 5.16096 -1.40288c2.11968 0 4.21888 0.65536 6.02112 1.95584c3.2768 2.37568 4.85376 6.48192 3.9936 10.45504l-25.10848 116.1728l88.58624 79.2064 C440.40192 226.27328 441.53856 230.49216 440.28928 234.35264zM330.68032 155.65824c-2.7648 -2.4576 -3.98336 -6.1952 -3.19488 -9.79968l21.48352 -99.31776l-87.79776 51.0976 c-0.01024 0 -0.02048 0 -0.03072 0.02048V321.00352l35.87072 -81.33632c1.49504 -3.3792 4.66944 -5.6832 8.33536 -6.06208l101.05856 -10.25024L330.68032 155.65824z"/><glyph unicode="&#xE016;" glyph-name="star111" horiz-adv-x="512" d="M433.95072 227.51232l-90.8288 -81.2032l25.76384 -119.07072c0.43008 -1.97632 -0.3584 -4.03456 -1.9968 -5.23264c-0.89088 -0.63488 -1.9456 -0.98304 -3.01056 -0.98304 c-0.88064 0 -1.77152 0.22528 -2.57024 0.68608L256 83.00544l-105.29792 -61.2864c-1.76128 -1.01376 -3.9424 -0.90112 -5.5808 0.28672 c-1.6384 1.1776 -2.41664 3.2256 -1.98656 5.2224l25.7536 119.07072l-90.8288 81.2032c-1.50528 1.36192 -2.07872 3.4816 -1.45408 5.39648s2.33472 3.29728 4.352 3.51232 l121.21088 12.29824l49.152 111.48288c1.6384 3.69664 7.7312 3.69664 9.3696 0l49.152 -111.48288l121.21088 -12.29824c2.01728 -0.21504 3.72736 -1.56672 4.36224 -3.51232 C436.02944 230.98368 435.456 228.88448 433.95072 227.51232z"/><glyph unicode="&#xE017;" glyph-name="time5" horiz-adv-x="576" d="M83.023700783616 190.06778520263l50.976010768713 0l0 -51.000624969953l-49.22840248065 0ZM83.023700783616 109.40704773809l50.976010768713 0l0 -50.951396567473l-49.22840248065 0ZM168.45959328878 270.75313686842l50.976010768713 0l0 -50.976010768713l-49.22840248065 0ZM168.45959328878 190.06778520263l50.976010768713 0l0 -51.000624969953l-49.22840248065 0ZM168.45959328878 109.40704773809l50.976010768713 0l0 -50.951396567473l-49.22840248065 0ZM474.51257151099 263.4181048988V412.13710879285C474.51257151099 431.87769818759 458.39026969857 448 438.64968030383 448H35.862891207154C16.122301812413 448 0 431.87769818759 0 412.13710879285V9.3749338974087c0 -19.740589394741 16.122301812413 -35.862891207154 35.862891207154 -35.862891207154 h262.90428344791c29.241671073506 -23.408105379549 66.286043940195 -37.462814287775 106.65333397433 -37.462814287775c94.469304360367 0 171.0933128215 76.550165857411 171.0933128215 171.01947021778C576.48920724965 176.89918753906 534.5219941349 236.85938176049 474.51257151099 263.4181048988zM155.43868083265 412.77707802509h163.48752463824v-42.262583529638H155.43868083265V412.77707802509zM44.059420220182 330.14720446132h386.34450266814v-54.102014326234c-8.1719148117879 1.2060958607759 -16.491514831018 2.042978702947 -25.00802846017 2.042978702947 c-37.635113696457 0 -72.316523244075 -12.307100620162 -100.57362626797 -32.909187058315v25.598769289938h-50.951396567473v-50.976010768713h23.161963367146c-26.460266333349 -30.103168116917 -42.607182347003 -69.485890101437 -42.607182347003 -112.73304168069c0 -30.866208355368 8.2949858179895 -59.738666410269 22.571222537378 -84.722080669199 H44.059420220182V330.14720446132zM389.71664823807 246.3850776405c0 8.6888130378347 7.0642757559733 15.654631988847 15.679246190087 15.654631988847c8.713427239075 0 15.679246190087 -6.965818951012 15.703860391327 -15.654631988847c0 -8.6641988365944 -6.9904331522523 -15.679246190087 -15.703860391327 -15.679246190087 C396.80553819528 230.70583145041 389.71664823807 237.7208788039 389.71664823807 246.3850776405zM281.78337579924 107.04408441902c0 -8.6888130378347 -6.9904331522523 -15.728474592568 -15.703860391327 -15.728474592568c-8.6888130378347 0 -15.679246190087 7.0396615547329 -15.679246190087 15.728474592568 s6.9904331522523 15.654631988847 15.679246190087 15.654631988847S281.758761598 115.73289745685 281.78337579924 107.04408441902zM405.39589442815 -47.976154992548c-8.6149704341137 0 -15.679246190087 6.9904331522523 -15.679246190087 15.630017787606 c0 8.713427239075 7.0642757559733 15.753088793808 15.679246190087 15.753088793808c8.713427239075 0 15.679246190087 -7.0150473534926 15.703860391327 -15.753088793808C421.09975481948 -40.985721840296 414.10932166723 -47.976154992548 405.39589442815 -47.976154992548zM500.35748281333 177.76068458247 l-65.646074707947 -65.547617902985c0.44305562232585 -2.0183645017066 1.2307100620162 -3.8890437959713 1.2307100620162 -6.0304793038796c0 -17.008413057065 -13.808566895822 -30.816979952887 -30.816979952887 -30.816979952887c-16.417672227297 0 -29.56165568963 12.971684053651 -30.447766934282 29.217056872266l-69.732032113841 54.175856929955 c-6.0304793038796 4.7259266381424 -7.4581029758185 13.045526657372 -3.0767751550406 18.608336137686c4.3567136195375 5.6366520840344 12.823998846209 6.3258497187635 18.854478150089 1.5999230806211l63.824623816163 -49.671458102976c5.5135810778328 5.1689822604682 12.799384644969 8.4672852266718 20.897456853036 8.4672852266718 c5.3658958703908 0 10.141050911014 -1.7229940868227 14.522378731792 -4.1351858083746l62.200086534301 62.273929138022c5.8089514927167 5.7843372914764 14.596221335513 6.3504639200038 19.519061583578 1.3537810682179C506.63410412961 192.28306331426 506.06797750108 183.56963607519 500.35748281333 177.76068458247zM544.71227344839 91.340224027691c-8.6641988365944 0 -15.679246190087 7.0396615547329 -15.679246190087 15.728474592568s7.0150473534926 15.654631988847 15.679246190087 15.654631988847c8.6888130378347 0 15.728474592568 -6.965818951012 15.728474592568 -15.654631988847 S553.42570068747 91.340224027691 544.71227344839 91.340224027691z"/><glyph unicode="&#xE018;" glyph-name="windows13" horiz-adv-x="512" d="M0.175 192L0 348.037l192 26.072V192H0.175zM224 378.759L479.936 416v-224H224V378.759zM479.999 160l-0.063 -224L224 -27.992 V160H479.999zM192 -23.918L0.156 2.379L0.146 160H192V-23.918z"/></font>
</defs>
</svg>
